Home| All Programs| Today added Progs| Download Status| Customers opinion| Helpdesk| Shopping cart

Program Search:

Shopping Cart:




*Note: Minimum order cost: €20
Maximum Total Price: €1500
We Recommend:
Kelby Training - Creating An iPad APP in InDesign CS6 €10 buy download


Kelby Training - Creating An iPad APP in InDesign CS6
MP4 | AVC 1800kbps | English | 1280x720 | 29.97fps | 2 hours | AAC stereo 64kbps | 1.57 GB
Genre: Video Training

With InDesign CS6 and a Creative Cloud subscription it has gotten a whole lot easier to create an unlimited number of applications for the iPad. Join Terry White, worldwide Creative Suite Design Evangelist for Adobe Systems, as he takes you through every step in the process for creating an iPad app from scratch up to submitting it for approval in the App Store. You’ll learn what software is required to complete each phase of the project, how to create alternate versions for vertical and horizontal orientations, how to add various forms of interactivity, and how to build the final app itself.

Introduction (03:21)
Join Terry as he introduces the class and goes over what you'll need to complete the project

Digital Publishing Suite Tools (02:36)
Before you get started you'll want to download and install the Digital Publishing Suite tools

An Example App (06:43)
To get an idea of where you are headed it can help to take a walk through a finished product before diving into the production of your own

Structure and Terminology (04:16)
Understanding the structure of the app and the terminology of the components is needed to move forward.

Building an Article (15:54)
Learn how to set up and start building your first document that will be part of your app.

Adding Music and Alternate View (09:10)
With the vertical version completed you can now add music and create the alternate (horizontal) view.

Creating Interactivity (11:39)
Add interactivity into your app is a fun way to engage your audience. Terry demonstrates a few different types of interaction.


Slideshows Part 1 (10:01)
There are various ways to do slideshows, and it really just depends on what you are looking to do.

Slideshows Part 2 (09:18)
Terry demonstrates another variation on the slideshow.

Rotating Interactivity (06:39)
There are two types of rotating interactivity you can build into your app.

Including Video (08:23)
You can also include actual video clips for your audience to view.


Including Web Content (11:01)
When considering the inclusion of web content you can either link to existing content on the web or you can incorporate the content into the app itself. There are tradeoffs either way.

Create Links to Your Content (06:28)
It is important to link your various bits of content together within the app.

Building the Folio (07:05)
Before you can build the final app you need to build the folio.

Building the Application (10:00)
With the folio designed and built you can use the Folio Builder to create the app.

Conclusion (01:54)
Terry wraps up the class with a quick review of what was covered and where to go from here.

Mediainfo:

Format : MPEG-4
Format profile : Base Media
Codec ID : isom
File size : 134 MiB
Duration : 9mn 58s
Overall bit rate : 1 873 Kbps
Performer : Kelby Media Group
Encoded date : UTC 2012-11-14 01:58:11
Tagged date : UTC 2012-11-14 01:58:11
Writing application : Lavf53.32.100
Copyright : kelbymediagroup.com
Comment : Copyright Kelby Media Group
Video #1
ID : 1
Format : AVC
Format/Info : Advanced Video Codec
Format profile : Main@L3.0
Format settings, CABAC : Yes
Format settings, ReFrames : 3 frames
Codec ID : avc1
Codec ID/Info : Advanced Video Coding
Duration : 9mn 58s
Bit rate mode : Variable
Bit rate : 1 800 Kbps
Width : 1 280 pixels
Height : 720 pixels
Display aspect ratio : 16:9
Frame rate mode : Constant
Frame rate : 29.970 fps
Resolution : 24 bits
Colorimetry : 4:2:0
Scan type : Progressive
Bits/(Pixel*Frame) : 0.065
Stream size : 129 MiB (96%)
Writing library : x264 core 120
Encoding settings : cabac=1 / ref=3 / deblock=1:0:0 / analyse=0x1:0x111 / me=hex / subme=6 / psy=0 / mixed_ref=0 / me_range=16 / chroma_me=1 / trellis=1 / 8x8dct=0 / cqm=0 / deadzone=21,11 / fast_pskip=1 / chroma_qp_offset=0 / threads=3 / sliced_threads=0 / nr=0 / decimate=1 / interlaced=0 / bluray_compat=0 / constrained_intra=0 / bframes=3 / b_pyramid=0 / b_adapt=1 / b_bias=0 / direct=1 / weightb=0 / open_gop=0 / weightp=2 / keyint=150 / keyint_min=76 / scenecut=0 / intra_refresh=0 / rc=2pass / mbtree=0 / bitrate=1800 / ratetol=1.0 / qcomp=0.60 / qpmin=10 / qpmax=51 / qpstep=4 / cplxblur=20.0 / qblur=0.5 / ip_ratio=1.40 / pb_ratio=1.30 / aq=1:1.00
Language : English
Encoded date : UTC 2012-11-14 01:58:11
Tagged date : UTC 2012-11-14 01:58:11
Audio #2
ID : 2
Format : AAC
Format/Info : Advanced Audio Codec
Format version : Version 4
Format profile : LC
Format settings, SBR : No
Format settings, PS : Yes
Codec ID : 40
Duration : 9mn 58s
Bit rate mode : Constant
Bit rate : 64.0 Kbps
Channel(s) : 2 channels
Channel positions : Front: L R
Sampling rate : 44.1 KHz
Resolution : 16 bits
Stream size : 4.57 MiB (3%)
Language : English
Encoded date : UTC 2012-11-14 01:58:11
Tagged date : UTC 2012-11-14 01:58:11


No mirrors please



Download File Size:1.56 GB


Kelby Training - Creating An iPad APP in InDesign CS6
€10
Customers who bought this program also bought:
  • Adobe Photoshop Plug-ins Bundle December 2015 €102
  • Lynda.com EDM Production Techniques Basslines €15
  • Total Training Copyright and Publishing Law For Musicians and Songwriters €15
  • Lynda.com EDM Production Techniques Drums €15
  • Lynda.com iPad for Business €10
  • After Effects CS5 Essential Training Video €20
  • Lynda.com Synth Programming Basics €10
  • Big Fish Audio Clash Global Cinematic Percussion Multiformat €20
  • Adobe Illustrator CC 17.0.1 €65
  • VTC iPad Music Production Course €15
  • Kelby Training Photoshop CS6 Automations €15
  • Soundiron Mars Symphonic Mens Choir KONTAKT €30
  • Digital Tutors Quick Start to After Effects Volume 4 €20
  • Digital Tutors Quick Start to After Effects Volume 5 €20
  • Dance Music Production Fundamental 7 Counterpoint €15
  • The Secrets Of Persuasion and Influence with Marshall Sylver €15
  • Digital Tutors Quick Start to After Effects Volume 3 €20
  • Cubebrush SCI-FI Character Design in Zbrush €15
  • Speedsound Interstellar Troublemaker Jukebox Thunder Beats WAV €20
  • Encyclopaedia Britannica 2015 Ultimate Edition (1 dvd) €15
  • 100 Minimal Techno Drum Loops WAV €10
  • Helloluxx Advanced Architectural Landscaping Techniques €20
  • Lynda.com Up and Running with Excel What-If Analysis €10
  • Lynda.com Visio 2013 Essential Training €15
  • King School Commercial Pilot Exam Course €25
  • Udemy Illustrator Mastery Zero to Hero in Illustrator €15
  • Udemy Ninja Web Developer Course Become A Web Developer In 5 Hrs €15
  • Udemy Step by Step Gif animation in Photoshop €10
  • Deep Data Loops Rene Breitbarth Loops Vol.8 WAV €15
  • Easy Sketch Pro 2.2.0 €10

  • Home| All Programs| Today added Progs| Download Status| Customers opinion| Helpdesk| Shopping cart      
    Copyright 2006-2010 ©   LPStore   All Rights Reserved





    Microsoft Office 2016 Professional Plus 16 €90

                 

    Microsoft Office 2016 for Mac Multilingual €90






    AutoCAD 2019 x64 (1 dvd) €90

                 

    SolidWorks 2018 SP2 x64 (1 dvd) €110






    Autodesk Revit 2019 Multilingual x64 (1 dvd) €130

                 

    Autodesk Factory Design Suite Ultimate 2018 .sfx x64 €198