Home| All Programs| Today added Progs| Download Status| Customers opinion| Helpdesk| Shopping cart

Program Search:

Shopping Cart:




*Note: Minimum order cost: €20
Maximum Total Price: €1500
We Recommend:
Paul Singh Bulls on Wall Street Mentorship Sessions €15 buy download

× Paul Singh Bulls on Wall Street Mentorship Sessions Close
Paul Singh Bulls on Wall Street Mentorship SessionsWEBRip | English | MP4 | 1152 x 720 | AVC ~501 Kbps | 14.985 fps
AAC | 137 Kbps | 48.0 KHz | 2 channels | 08:45:35 | 2.97 GBGenre: eLearning Video / Trading, Forex
Start Trading Better Tomorrow Our Swing Trader program, led by veteran trader Paul Singh, will show you how to successfully navigate the world of swing trading and learn how to generate a second income without having to sit at your computer all day!Swing Trade Features…

2-5 Weekly Stock Picks
Trade Alerts (email and SMS)
Trade Profit and Stop Levels

Daily Trade Reports
Daily Stock Watch List
All New Group Mentorship Sessions
In-depth Market Analysis
Clear Explanations

Daily Trade Reports
Paul's daily Trade Reports provide an in-depth view of overall market conditions, current positions, watchlist stocks, and more.

As a member of our Swing Trade Alert service, you will receive a new Trade Reports via email every trading day. You won't want to miss them!

Is swing trading right for me?
If you agree to any of the following points then swing trading might be perfect for you!


I Have Limited Time …
Have a full-time job? Don't have hours every day to research stocks and read charts?


Why Swing Trading Works
Swing traders typically trade 2-3 stocks per week, providing a secondary income for those will full time jobs. Let us find the right stocks to trade!

I Have Limited Capital …
Do you have less than $25,000 to trade? Can't stomach the high risk/reward of Day Trading?


Why Swing Trading Works
Swing Traders hold positions from a few days to a few weeks and always have proper risk management to limit downside.

I Want to Learn …
Do you want to learn the fundamentals behind each winning alert?


Why Swing Trading Works
Paul goes into great detail explaining the reasons behind every trade. Learn how a veteran trader analyzes the market.

About Paul Singh
Paul’s approach to part-time trading focuses on momentum stocks with catalysts, money flow, price action and volume. He religiously adheres to strict risk and trade management principles.

Swing Trading for over 18 years
2016 Performance to date: 20%+
Turned $5k initial investment into a growing full time income


Price: $599
More Info: Salepage

also You can find my other last: Trading-posts

MediaInfo: General
Complete name : Pauls Mentorship Session 4.mp4
Format : MPEG-4
Format profile : Base Media / Version 2
Codec ID : mp42 (mp42/mp41/isom/avc1)
File size : 315 MiB
Duration : 1 h 8 min
Overall bit rate mode : Variable
Overall bit rate : 641 kb/s
Encoded date : UTC 2018-07-22 18:05:06
Tagged date : UTC 2018-07-22 18:05:06

Video
ID : 1
Format : AVC
Format/Info : Advanced Video Codec
Format profile : High@L3.2
Format settings : CABAC / 5 Ref Frames
Format settings, CABAC : Yes
Format settings, RefFrames : 5 frames
Codec ID : avc1
Codec ID/Info : Advanced Video Coding
Duration : 1 h 8 min
Bit rate : 501 kb/s
Width : 1 152 pixels
Height : 720 pixels
Display aspect ratio : 16:10
Frame rate mode : Constant
Frame rate : 14.985 (15000/1001) FPS
Color space : YUV
Chroma subsampling : 4:2:0
Bit depth : 8 bits
Scan type : Progressive
Bits/(Pixel*Frame) : 0.040
Stream size : 246 MiB (78%)
Writing library : x264 core 155 r10 7d0ff22
Encoding settings : cabac=1 / ref=5 / deblock=1:0:0 / analyse=0x3:0x113 / me=hex / subme=8 / psy=1 / psy_rd=1.00:0.00 / mixed_ref=1 / me_range=16 / chroma_me=1 / trellis=2 / 8x8dct=1 / cqm=0 / deadzone=21,11 / fast_pskip=1 / chroma_qp_offset=-2 / threads=22 / lookahead_threads=3 / sliced_threads=0 / nr=0 / decimate=1 / interlaced=0 / bluray_compat=0 / stitchable=1 / constrained_intra=0 / bframes=3 / b_pyramid=2 / b_adapt=2 / b_bias=0 / direct=3 / weightb=1 / open_gop=0 / weightp=2 / keyint=infinite / keyint_min=14 / scenecut=40 / intra_refresh=0 / rc_lookahead=50 / rc=crf / mbtree=1 / crf=20.0 / qcomp=0.60 / qpmin=5 / qpmax=69 / qpstep=4 / vbv_maxrate=2750 / vbv_bufsize=7500 / crf_max=0.0 / nal_hrd=none / filler=0 / ip_ratio=1.40 / aq=1:1.00
Encoded date : UTC 2018-07-22 18:05:06
Tagged date : UTC 2018-07-22 18:05:06
Color range : Limited
Color primaries : BT.709
Transfer characteristics : BT.709
Matrix coefficients : BT.709

Audio
ID : 2
Format : AAC
Format/Info : Advanced Audio Codec
Format profile : LC
Codec ID : mp4a-40-2
Duration : 1 h 8 min
Bit rate mode : Variable
Bit rate : 137 kb/s
Channel(s) : 2 channels
Channel positions : Front: L R
Sampling rate : 48.0 kHz
Frame rate : 46.875 FPS (1024 SPF)
Compression mode : Lossy
Stream size : 67.3 MiB (21%)
Encoded date : UTC 2018-07-22 18:05:06
Tagged date : UTC 2018-07-22 18:05:06
Screenshots
× Paul Singh Bulls on Wall Street Mentorship Sessions Close
× Paul Singh Bulls on Wall Street Mentorship Sessions Close
× Paul Singh Bulls on Wall Street Mentorship Sessions Close
× Paul Singh Bulls on Wall Street Mentorship Sessions Close
Exclusive eLearning Videos ParRus-blog ← add to bookmarks
× Paul Singh Bulls on Wall Street Mentorship Sessions Close



Download File Size:2.4 GB


Paul Singh Bulls on Wall Street Mentorship Sessions
€15
Customers who bought this program also bought:

Home| All Programs| Today added Progs| Download Status| Customers opinion| Helpdesk| Shopping cart      
Copyright 2006-2010 ©   LPStore   All Rights Reserved





Adobe Acrobat Pro DC 2017.012.20093 Multilingual €68


MathWorks MATLAB R2018a x64 (2 dvd) €100


Adobe Acrobat Pro DC 2017.009.20058 Multilingual for Mac €68






Adobe CC 2018 Collection x64 €260


Adobe Photoshop Elements and Premiere Elements 2018 16.0 Multilanguage x64 €35


Microsoft Windows 10 Pro With Office and More x64 (1 dvd) €150






Intuit QuickBooks Enterprise Accountant 18.0 R1 €40


Mindjet MindManager 2018 18.0.284 Multilingual x64 €25


Chief Architect Premier X9 19.3.1.8 x64 €50