Home| All Programs| Today added Progs| Download Status| Customers opinion| Helpdesk| Shopping cart

Program Search:

Shopping Cart:




*Note: Minimum order cost: €20
Maximum Total Price: €1500
We Recommend:
The Forex Scalper Mentorship Package (Part 2) €20 buy download

× The Forex Scalper Mentorship Package (Part 2) Close
The Forex Scalper Mentorship Package (Part 2)WEBRip | English | MP4 + PDF Guides | 1920 x 1080 | AVC ~904 Kbps | 25 fps
AAC | 85.3 Kbps | 48.0 KHz | 1 channel | ~5 hours | 9.76 GBGenre: eLearning Video / Trading, Forex
The Forex Scalper Mentorship have been designed to guide either beginner as well as more advanced traders. Our material and strategy can be applied on any financial instrument. You will find the highest accuracy on Forex Pairs. I currently offer the most detailed Forex Course around. And you’ll get access to our online drive with educational video’s , analysis, multiply books and weekly updates. I strive to turn any individual into a profitable Forex scalper.Mentorship

The Online Course is designed by me, i have 10 years of experience in the forex market,to teach you how to learn to trade the forex markets consistently.Suitable for all trading styles based on price action.

About The Forex Scalper

The Forex Scalper is a professional day trader with more than 10 years of experience in trading forex. Forex is my work but also my passion. I provide the forex bootcamp and Mentorship.
Daily I analyse the market to look for good oppertunities & setups to share with my group on whatsapp.
I also provide a live help desk on whatsapp, you can ask me and the group everything about trading and we give you advice about trading trades, brokers, positions, risk management etc.
I’m there for my clients. Every trade have to be a winning trade.

also You can find my other last: Trading-posts

MediaInfo: General
Complete name : 3. Week 2.MP4
Format : MPEG-4
Format profile : Base Media / Version 2
Codec ID : mp42 (mp42/mp41/isom/avc1)
File size : 773 MiB
Duration : 1 h 48 min
Overall bit rate mode : Variable
Overall bit rate : 994 kb/s
Encoded date : UTC 2018-04-16 09:09:37
Tagged date : UTC 2018-04-16 09:09:37

Video
ID : 1
Format : AVC
Format/Info : Advanced Video Codec
Format profile : High@L4
Format settings : CABAC / 5 Ref Frames
Format settings, CABAC : Yes
Format settings, RefFrames : 5 frames
Codec ID : avc1
Codec ID/Info : Advanced Video Coding
Duration : 1 h 48 min
Bit rate : 904 kb/s
Width : 1 920 pixels
Height : 1 080 pixels
Display aspect ratio : 16:9
Frame rate mode : Constant
Frame rate : 25.000 FPS
Color space : YUV
Chroma subsampling : 4:2:0
Bit depth : 8 bits
Scan type : Progressive
Bits/(Pixel*Frame) : 0.017
Stream size : 703 MiB (91%)
Writing library : x264 core 155 r10 7d0ff22
Encoding settings : cabac=1 / ref=5 / deblock=1:0:0 / analyse=0x3:0x113 / me=hex / subme=8 / psy=1 / psy_rd=1.00:0.00 / mixed_ref=1 / me_range=16 / chroma_me=1 / trellis=2 / 8x8dct=1 / cqm=0 / deadzone=21,11 / fast_pskip=1 / chroma_qp_offset=-2 / threads=34 / lookahead_threads=5 / sliced_threads=0 / nr=0 / decimate=1 / interlaced=0 / bluray_compat=0 / stitchable=1 / constrained_intra=0 / bframes=3 / b_pyramid=2 / b_adapt=2 / b_bias=0 / direct=3 / weightb=1 / open_gop=0 / weightp=2 / keyint=infinite / keyint_min=25 / scenecut=40 / intra_refresh=0 / rc_lookahead=50 / rc=crf / mbtree=1 / crf=20.0 / qcomp=0.60 / qpmin=5 / qpmax=69 / qpstep=4 / vbv_maxrate=5500 / vbv_bufsize=15000 / crf_max=0.0 / nal_hrd=none / filler=0 / ip_ratio=1.40 / aq=1:1.00
Encoded date : UTC 2018-04-16 09:09:37
Tagged date : UTC 2018-04-16 09:09:37
Color range : Limited
Color primaries : BT.709
Transfer characteristics : BT.709
Matrix coefficients : BT.709

Audio
ID : 2
Format : AAC
Format/Info : Advanced Audio Codec
Format profile : LC
Codec ID : mp4a-40-2
Duration : 1 h 48 min
Bit rate mode : Variable
Bit rate : 85.3 kb/s
Channel(s) : 2 channels
Channel(s)_Original : 1 channel
Channel positions : Front: C
Sampling rate : 48.0 kHz
Frame rate : 46.875 FPS (1024 SPF)
Compression mode : Lossy
Stream size : 66.4 MiB (9%)
Encoded date : UTC 2018-04-16 09:09:37
Tagged date : UTC 2018-04-16 09:09:37
Screenshots
× The Forex Scalper Mentorship Package (Part 2) Close
× The Forex Scalper Mentorship Package (Part 2) Close
× The Forex Scalper Mentorship Package (Part 2) Close
× The Forex Scalper Mentorship Package (Part 2) Close
× The Forex Scalper Mentorship Package (Part 2) Close
Exclusive eLearning Videos ParRus-blog ← add to bookmarks
× The Forex Scalper Mentorship Package (Part 2) Close



Download File Size:9.58 GB


The Forex Scalper Mentorship Package (Part 2)
€20
Customers who bought this program also bought:

Home| All Programs| Today added Progs| Download Status| Customers opinion| Helpdesk| Shopping cart      
Copyright 2006-2019 ©   LPStore   All Rights Reserved




                                       

Cambridge University History Collection PDF eBooks €100

                   





Microsoft Office 2016 Professional Plus 16 €90

             

Microsoft Office 2016 for Mac Multilingual €90






Intuit QuickBooks Enterprise Accountant 18.0 R1 €40


Mindjet MindManager 2018 18.0.284 Multilingual x64 €25


Chief Architect Premier X9 19.3.1.8 x64 €50