Home| All Programs| Today added Progs| Download Status| Customers opinion| Helpdesk| Shopping cart

Program Search:

Shopping Cart:




*Note: Minimum order cost: €20
Maximum Total Price: €1500
We Recommend:
Steve Tan - The Ultimate ECOM System €20 buy download

× Steve Tan - The Ultimate ECOM System Close
Steve Tan - The Ultimate ECOM SystemWEBRip | English | MP4 | 1920 x 1080 | AVC ~1901 Kbps | 30 fps
AAC | 126 Kbps | 44.1 KHz | 2 channels | ~14 hours | 13.70 GBGenre: eLearning Video / Business, Sales, Marketing
“Who else wants a 30 day, in-depth education on how to grow an ?E-commerce business from ZERO to $1MM a Year or $1MM a Month… FAST?”THE ULTIMATE ECOM SYSTEM
The Ultimate Ecom System ( is a 4 week online program with the sole goal of creating a profitable e-commerce business and getting it profitable in as short of time as possible with step by step proven methods DIRECTLY taught by 8 figure e-commerce experts Steve Tan and Evan Tan.
Upon purchase you will be given instructions on how to register for the member’s area of this program. The pilot program starts on May 1, 2018, and new modules and training videos will be unlocked weekly, for 4 weeks. The program will begin by showing you step by step how to find winning products, test them, scale them, and build a team who can help you scale your business profitably.
This is 100% beginner friendly. This program is designed to work for a total novice without any prior experience BUT also has A LOT of advanced principle, systems, and strategies for those who are looking to make $1MM per year or $1MM per month. Through the 4 week course you will get everything you need to create or grow an e-commerce business quickly and profitably.

Week 1: Finding Winning Products
How to setup your store so it gets people to buy
How to find winning products over and over again
Best places to find products that can go “viral”
Store setup essentials required for maximum success
The “anatomy” of a winning product

Week 2: Launching and Testing
Our exact product testing system that quickly separates? winning products from losing products
How to launch ads that grabs your customer’s attention
How to target correctly and quickly find audiences that ?have the highest probability of converting into customers
How to fulfill orders that come in efficiently

Week 3: Building Your Dream Team
Our system for finding, hiring, and training superstars.
How to find and negotiate with vendors and suppliers who ?can give you the best quality at the best prices.
Advanced strategies your team can use to find hot products ?that “fly off the shelf”
The type of team members you need for ?a 7-8 figure business

Week 4: Scaling Systems
How we scale from $1k a day to $10k a day… all the way ?to $100k+ a day
Inside the mind of an 8-figure E-commerce entrepreneur
How we turn up the profits by increasing conversion, ?average order value, and life time customer value
How to prepare for rapid scaling.

Summary
The Ultimate Ecom System ($7,500)
Access to members only FB group ($2,000)
Advanced Scaling and Mindset Training ($2,500)
Real World Value: $12,000
Start TODAY for just $2,500

Looking For A Refund Policy?
If you are already thinking of “failure” before we even get started, then this is NOT for you.
We are only looking for people who are excited to take action, ready to go all in, and willing to do whatever it takes to succeed.
Like I said, this is about creating SUCCESS STORIES for us.

THIS IS OUR LEGACY!
So we can’t risk having anybody in this group that doesn’t have what it takes to succeed… and it starts with how you SHOW UP.
You have seen PROOF with your own eyes that our stuff works, and people get results.
You’ve had a “taste” in your mouth of what our content is like in our last 3 videos, and all the jam-packed golden nuggets we have on our FREE Facebook group so you know what kind of value to expect.
If you FEEL in you gut that this is something that can change the course of your E-commerce business (and life) moving forward, and If failure is NOT an option for you, then this is for you.
Once you join, and you’re IN, then you’re FULLY IN… and there are no refunds.
There’s no middle ground or grey area here.
You’re either ALL IN or all out.
If you join, and implement what we teach, this can be the most profitable investment you’ll ever make.
If you don’t, you’ll stay exactly where you are.
At this point, it’s not a question of “Does this work?” anymore…
It’s a proven fact.
The only question is “Are you going to be our next success story?”

also You can find my other last: Business-posts

MediaInfo: General
Complete name : 10 Xporter- CSV Exporter.mp4
Format : MPEG-4
Format profile : Base Media / Version 2
Codec ID : mp42 (isom/mp42)
File size : 97.6 MiB
Duration : 6 min 43 s
Overall bit rate mode : Variable
Overall bit rate : 2 029 kb/s
Movie name : Apps- Xporter
Encoded date : UTC 2018-04-20 12:05:30
Tagged date : UTC 2018-04-20 12:05:30

Video
ID : 1
Format : AVC
Format/Info : Advanced Video Codec
Format profile : Baseline@L4.1
Format settings : 1 Ref Frames
Format settings, CABAC : No
Format settings, RefFrames : 1 frame
Codec ID : avc1
Codec ID/Info : Advanced Video Coding
Duration : 6 min 43 s
Bit rate : 1 901 kb/s
Width : 1 920 pixels
Height : 1 080 pixels
Display aspect ratio : 16:9
Frame rate mode : Constant
Frame rate : 30.000 FPS
Standard : NTSC
Color space : YUV
Chroma subsampling : 4:2:0
Bit depth : 8 bits
Scan type : Progressive
Bits/(Pixel*Frame) : 0.031
Stream size : 91.4 MiB (94%)
Language : English
Encoded date : UTC 2018-04-20 12:05:31
Tagged date : UTC 2018-04-20 12:05:31
Color range : Limited

Audio
ID : 2
Format : AAC
Format/Info : Advanced Audio Codec
Format profile : LC
Codec ID : mp4a-40-2
Duration : 6 min 43 s
Bit rate mode : Variable
Bit rate : 126 kb/s
Maximum bit rate : 159 kb/s
Channel(s) : 2 channels
Channel positions : Front: L R
Sampling rate : 44.1 kHz
Frame rate : 43.066 FPS (1024 SPF)
Compression mode : Lossy
Stream size : 6.04 MiB (6%)
Language : English
Encoded date : UTC 2018-04-20 12:05:31
Tagged date : UTC 2018-04-20 12:05:31
Screenshots
× Steve Tan - The Ultimate ECOM System Close
× Steve Tan - The Ultimate ECOM System Close
× Steve Tan - The Ultimate ECOM System Close
× Steve Tan - The Ultimate ECOM System Close
× Steve Tan - The Ultimate ECOM System Close
Exclusive eLearning Videos ParRus-blog ← add to bookmarks
× Steve Tan - The Ultimate ECOM System Close



Download File Size:12.77 GB


Steve Tan - The Ultimate ECOM System
€20
Customers who bought this program also bought:

Home| All Programs| Today added Progs| Download Status| Customers opinion| Helpdesk| Shopping cart      
Copyright 2006-2010 ©   LPStore   All Rights Reserved





Adobe Photoshop CC 2018 x64 €82

             

Adobe Illustrator CC 2018 x64 €72






DxO Optics Pro 11.4.0 Build 11979 Elite Multilingual x64 €22


SketchUp Pro 2018 18.0 x64 €30


Corel Painter 2018 18.1.0.651 Multilingual x64 €40






FileMaker Pro 16 Advanced 16.0.3.302 x64 €60


Pinnacle Studio Ultimate 21 €25


CorelDRAW Graphics Suite 2017 €65