Home| All Programs| Today added Progs| Download Status| Customers opinion| Helpdesk| Shopping cart

Program Search:

Shopping Cart:




*Note: Minimum order cost: €20
Maximum Total Price: €1500
We Recommend:
Arturia DX7 V with King Unique €10 buy download

× Arturia DX7 V with King Unique Close
Arturia DX7 V with King Unique
WEBRip | English | MP4 + Project files | 1920 x 1200 | AVC ~589 kbps | 30 fps
AAC 103 Kbps 44.1 KHz | 2 channels | 2h 49mn | 1.21 GB
Genre: eLearning Video / Sound Processing, Music Production
This week we're bringing you an all new How To Use course and welcoming back his synth highness, King Unique, for an in-depth look into the world of FM synthesis using Arturia's DX7 V.Content:

01 - Overview (10:03)
02 - Operators Part 1 (19:11)
03 - Operators Part 2 (14:42)
04 - Global Parameters (16:37)
05 - Envelopes (09:51)
06 - Modulation (20:15)
07 - FX (05:52)
08 - Presets and MIDI (10:37)
09 - Sound Design - Bass (12:41)
10 - Sound Design - Pad (18:41)
11 - Sound Design - Tech Riff (31:08)

also You can watch my other helpful: sound processing-posts
(if old file-links don't show activity, try copy-paste them to the address bar)

MediaInfo: General
Complete name : Tutorial 03 - Operators Part 2.mp4
Format : MPEG-4
Format profile : Base Media
Codec ID : isom (isom/iso2/avc1/mp41)
File size : 74.0 MiB
Duration : 14 min 42 s
Overall bit rate : 703 kb/s
Writing application : Lavf57.72.101

Video
ID : 1
Format : AVC
Format/Info : Advanced Video Codec
Format profile : Main@L3
Format settings : CABAC / 3 Ref Frames
Format settings, CABAC : Yes
Format settings, RefFrames : 3 frames
Codec ID : avc1
Codec ID/Info : Advanced Video Coding
Duration : 14 min 42 s
Bit rate : 589 kb/s
Nominal bit rate : 1 600 kb/s
Width : 1 920 pixels
Height : 1 200 pixels
Display aspect ratio : 16:10
Frame rate mode : Variable
Frame rate : 30.000 FPS
Minimum frame rate : 15.000 FPS
Maximum frame rate : 90 000.000 FPS
Color space : YUV
Chroma subsampling : 4:2:0
Bit depth : 8 bits
Scan type : Progressive
Bits/(Pixel*Frame) : 0.009
Stream size : 62.0 MiB (84%)
Writing library : x264 core 136
Encoding settings : cabac=1 / ref=3 / deblock=1:0:0 / analyse=0x1:0x111 / me=hex / subme=6 / psy=0 / mixed_ref=0 / me_range=16 / chroma_me=1 / trellis=1 / 8x8dct=0 / cqm=0 / deadzone=21,11 / fast_pskip=1 / chroma_qp_offset=0 / threads=54 / lookahead_threads=9 / sliced_threads=0 / nr=0 / decimate=1 / interlaced=0 / bluray_compat=0 / constrained_intra=0 / bframes=3 / b_pyramid=0 / b_adapt=1 / b_bias=0 / direct=1 / weightb=0 / open_gop=0 / weightp=2 / keyint=150 / keyint_min=25 / scenecut=40 / intra_refresh=0 / rc=2pass / mbtree=0 / bitrate=1600 / ratetol=1.0 / qcomp=0.60 / qpmin=10 / qpmax=51 / qpstep=4 / cplxblur=20.0 / qblur=0.5 / ip_ratio=1.40 / pb_ratio=1.30 / aq=1:1.00

Audio
ID : 2
Format : AAC
Format/Info : Advanced Audio Codec
Format profile : LC
Codec ID : mp4a-40-2
Duration : 14 min 42 s
Bit rate mode : Constant
Bit rate : 103 kb/s
Channel(s) : 2 channels
Channel positions : Front: L R
Sampling rate : 44.1 kHz
Frame rate : 43.066 FPS (1024 SPF)
Compression mode : Lossy
Stream size : 10.9 MiB (15%)
Default : Yes
Alternate group : 1 Screenshots
× Arturia DX7 V with King Unique Close
× Arturia DX7 V with King Unique Close
× Arturia DX7 V with King Unique Close
× Arturia DX7 V with King Unique Close
✅ Exclusive eLearning Videos ParRus-blog ← add to bookmarks

Feel free to contact me PM
when links are dead or want any repost
× Arturia DX7 V with King Unique Close



Download File Size:1.15 GB


Arturia DX7 V with King Unique
€10
Customers who bought this program also bought:

Home| All Programs| Today added Progs| Download Status| Customers opinion| Helpdesk| Shopping cart      
Copyright 2006-2019 ©   LPStore   All Rights Reserved





Adobe Master Collection CC 2019 €260


Adobe Premiere Elements 2019 17.0 €35


Microsoft Windows 10 Pro With Office and More x64 (1 dvd) €150






Autodesk Revit 2020 Multilingual (1 dvd) €140

             

Autodesk Product Design Suite Ultimate 2020 .sfx (x64) €250






FileMaker Pro 18 Advanced 18.0.2.209 Multilingual €60


Pinnacle Studio Ultimate 22 €25


CorelDRAW Graphics Suite 2019 Multilingual €60