Home| All Programs| Today added Progs| Download Status| Customers opinion| Helpdesk| Shopping cart

Program Search:

Shopping Cart:




*Note: Minimum order cost: €20
Maximum Total Price: €1500
We Recommend:
Become a WordPress Developer Unlocking Power With Code €20 buy download

× Become a WordPress Developer: Unlocking Power With Code Close
Become a WordPress Developer: Unlocking Power With CodeWEBRip | English | MP4 | 1280 x 720 | AVC ~160 Kbps | 30 fps
AAC | 192 Kbps | 48.0 KHz | 2 channels | ~27 hours | 3.78 GBGenre: Video Tutorial / Development, Web Development, WordPress
Learn PHP, JavaScript, WordPress theming & the WP REST API to Create Custom & Interactive WordPress WebsitesWhat you'll learn
Why code is the key to building whatever you can imagine with WordPress
The ability to write PHP to manipulate the data of a WordPress site
The ability to write JavaScript to add on-the-fly interactivity to a WordPress site
How to code your own new custom block types for the "Gutenberg" Block Editor
The skills, knowledge and vocabulary to work professionally as a WordPress developer

Requirements
Basic WordPress knowledge (how to create a blog post, etc…)
A basic understanding of HTML (e.g. "p" is for paragraph, "h1" is for headline, etc…)
No CSS knowledge required (although it helps to understand that CSS is used to add style & design to a page)
No JavaScript knowledge required (although it helps to understand that JS is used to add interactivity to a page)
Description
Unlock the full power of WordPress and go beyond "just a blog platform" by learning how to code completely custom WordPress powered sites.

Updated for 2019: A new 3 part lesson on coding our own custom block type for the new "Gutenberg" Block Editor in WordPress.

I've spent the last 12 years studying WordPress, PHP, and JavaScript and now I'm here to teach you everything I know. Come along on this journey with me and become a WordPress developer.

Together we will build a website for a fictional university and along the way we will:

Install WordPress on your personal computer so you have a private playground copy of WordPress to practice and experiment with

Get introduced to the PHP language (this is what powers WordPress)

Set Up a New Theme (You'll learn how to convert any HTML template into a living breathing WordPress theme)

Create Custom Post Types and Custom Fields

Relate pieces of content with each other (e.g. a professor and a program)

Learn the basics of (object-oriented) JavaScript

Leverage the WP REST API

Learn to use JavaScript to communicate with the WordPress back-end on-the-fly

Let visitors sign up for a basic account on our site

Build a "My Notes" feature (user specific single page application with real-time CRUD actions)

Let users "like" or "heart" a professor (update the professor's like count on-the-fly)

Deploy our website live up onto the web for the entire world to view

And much more!



This course may be brand new, but this isn’t my first time teaching. I’ve led training sessions for Fortune 500 companies and I’ve already helped over 17,000 people on Udemy and received the following feedback:

"Brad definitely has some of the best techniques to embed the lesson into your mind… hands down these are the best tutorials I have had the opportunity to view."

"Presentation is concise without being tedious… you honestly feel that you have a thorough understanding of the subject."

"…[Brad] explained the process. Not memorize this or that, he explained the process. If you're looking to take a course to understand the foundations of creating websites, look no further."

Become highly valuable and relevant to the companies that are hiring WordPress developers; in one convenient place alongside one instructor. If you're ready to begin coding custom websites - I'll see you on the inside!

Who this course is for:
Developers who want to use WordPress as a true Content Management System and not "just a blog platform."
Those looking to learn the PHP and JavaScript languages.
People who want to learn about the "REST API" which allows us to interact with WordPress data on-the-fly in realtime.
Anyone interested in custom post types, custom fields, and creating relationships between various content types

also You can find my other useful: programming-posts

MediaInfo: General
Complete name : 040 Featured Image (Post Thumbnail).mp4
Format : MPEG-4
Format profile : Base Media / Version 2
Codec ID : mp42 (isom/iso2/avc1/mp41/mp42)
File size : 50.2 MiB
Duration : 19 min 54 s
Overall bit rate : 352 kb/s
Encoded date : UTC 2017-07-14 01:37:19
Tagged date : UTC 2017-07-14 01:37:19
Writing application : Lavf53.32.100

Video
ID : 1
Format : AVC
Format/Info : Advanced Video Codec
Format profile : High@L3
Format settings : CABAC / 4 Ref Frames
Format settings, CABAC : Yes
Format settings, RefFrames : 4 frames
Codec ID : avc1
Codec ID/Info : Advanced Video Coding
Duration : 19 min 53 s
Bit rate : 160 kb/s
Width : 1 280 pixels
Height : 720 pixels
Display aspect ratio : 16:9
Frame rate mode : Constant
Frame rate : 30.000 FPS
Color space : YUV
Chroma subsampling : 4:2:0
Bit depth : 8 bits
Scan type : Progressive
Bits/(Pixel*Frame) : 0.006
Stream size : 22.8 MiB (45%)
Writing library : x264 core 136
Encoding settings : cabac=1 / ref=4 / deblock=1:0:0 / analyse=0x3:0x113 / me=umh / subme=7 / psy=0 / mixed_ref=1 / me_range=16 / chroma_me=1 / trellis=1 / 8x8dct=1 / cqm=0 / deadzone=21,11 / fast_pskip=0 / chroma_qp_offset=0 / threads=48 / lookahead_threads=5 / sliced_threads=0 / nr=0 / decimate=1 / interlaced=0 / bluray_compat=0 / constrained_intra=0 / bframes=16 / b_pyramid=2 / b_adapt=1 / b_bias=0 / direct=1 / weightb=1 / open_gop=0 / weightp=2 / keyint=300 / keyint_min=25 / scenecut=40 / intra_refresh=0 / rc=2pass / mbtree=0 / bitrate=160 / ratetol=1.0 / qcomp=0.60 / qpmin=10 / qpmax=51 / qpstep=4 / cplxblur=20.0 / qblur=0.5 / ip_ratio=1.40 / pb_ratio=1.30 / aq=1:1.00
Encoded date : UTC 2017-07-14 01:37:19
Tagged date : UTC 2017-07-14 06:35:16

Audio
ID : 2
Format : AAC
Format/Info : Advanced Audio Codec
Format profile : LC
Codec ID : mp4a-40-2
Duration : 19 min 54 s
Bit rate mode : Constant
Bit rate : 192 kb/s
Channel(s) : 2 channels
Channel positions : Front: L R
Sampling rate : 48.0 kHz
Frame rate : 46.875 FPS (1024 SPF)
Compression mode : Lossy
Stream size : 27.0 MiB (54%)
Default : Yes
Alternate group : 1
Encoded date : UTC 2017-07-14 01:37:19
Tagged date : UTC 2017-07-14 06:35:16
Screenshots
× Become a WordPress Developer: Unlocking Power With Code Close
× Become a WordPress Developer: Unlocking Power With Code Close
× Become a WordPress Developer: Unlocking Power With Code Close
× Become a WordPress Developer: Unlocking Power With Code Close
✅ Exclusive eLearning Videos ParRus-blog ← add to bookmarks

Feel free to contact me PM
when links are dead or want any repost
× Become a WordPress Developer: Unlocking Power With Code Close



Download File Size:3.7 GB


Become a WordPress Developer Unlocking Power With Code
€20
Customers who bought this program also bought:
  • Wrox Professional Web APIs Google eBay PayPal Amazon com MapPoint FedEx Apr 2005 eBook €10
  • CIA Lock Picking Manual PDF eBook €1
  • InstallAware Studio Admin X11 version 28.02.0.2020 €40
  • Jordan Mackey - Make Money On Youtube Made Easy 2019 €20
  • Jordan Mackey - Youtube Advanced Masterclass €20
  • Nanjing Swansoft SSCNC Simulator 7.2.5.2 €25
  • Building Web Applications with Visual Studio 2017 Using .NET Core and Modern JavaScript Frameworks €1
  • 500 Social Media Marketing Tips Essential Advice Hints and Strategy for Business Facebook Twitter Pinterest Googleplus YouTube Instagram LinkedIn and More by Andrew Macarthy ePub eBook €10
  • eBay Global the Smart Way Buying and Selling Internationally on the World s #1 Auction Site PDF eBook €10
  • What to Sell on eBay and Where to Get It PDF eBook €1
  • CreativeLIVE YouTube Marketing €20
  • The Complete Idiot s Guide to Starting an eBay Business PDF eBook €10
  • Lynda.com YouTube Essential Training (1 cd) €16
  • How to Make Money with YouTube eBook €5
  • Boost your YouTube Channel €5

  • Home| All Programs| Today added Progs| Download Status| Customers opinion| Helpdesk| Shopping cart      
    Copyright 2006-2019 ©   LPStore   All Rights Reserved





    Adobe Master Collection CC 2019 €260


    Adobe Premiere Elements 2019 17.0 €35


    Microsoft Windows 10 Pro With Office and More x64 (1 dvd) €150






    Microsoft Office 2019 Professional Plus version 1810 Build 11001.20108 x32 x64 (1 dvd) €99

                 

    Microsoft Office 2019 for Mac 16.26 VL Multilingual €99






    Autodesk Revit 2020 Multilingual (1 dvd) €140

                 

    Autodesk Product Design Suite Ultimate 2020 .sfx (x64) €250