Home| All Programs| Today added Progs| Download Status| Customers opinion| Helpdesk| Shopping cart

Program Search:

Shopping Cart:




*Note: Minimum order cost: €20
Maximum Total Price: €1500
We Recommend:
Brendon Burchard - Habit Builder Bundle €25 buy download

× Brendon Burchard - Habit Builder Bundle Close
Brendon Burchard - Habit Builder Bundle
WEBRip | English | MP4 | 960 x 540 | AVC ~322 kbps | 23.976 fps
AAC | 129 Kbps | 48.0 KHz | 2 channels | 08:34:21 | 2.33 GB
Genre: eLearning Video / Self-Improvement
This is the program there follow brendon burchardnew book on high perfomancehabitsHabit Builder Bundle -One-time only offer! Save on all six classes right now!You get training on developing world-class habits in ALL SIX habits correlated with long-term success:CLARITY Habit Builder ($97HALF OFF NOW!)
ENERGYHabit Builder ($97HALF OFF NOW!)
NECESSITYHabit Builder ($97HALF OFF NOW!)
PRODUCTIVITYHabit Builder ($97HALF OFF NOW!)
INFLUENCEHabit Builder ($97HALF OFF NOW!)
COURAGEHabit Builder ($97HALF OFF NOW!)

Each of the 6 habit builder classes include:1-2 hours of instruction by Brendon BurchardFree before-and-after performance assessment5 daily practices for improving and locking in this habit5 recommended books to read5 recommended videos or documentaries to watchDaily journal PDF to improve this specific habitLifetime accessThis is the program there follow brendon burchardnew book on high perfomancehabits

also You can look my other helpful: Self-Improvement-posts

MediaInfo: General
Complete name : 5. Energy Builder Practice Four - Form Your Pro Health Team.mp4
Format : MPEG-4
Format profile : Base Media / Version 2
Codec ID : mp42 (mp42/isom/hvc1)
File size : 47.0 MiB
Duration : 14 min 24 s
Overall bit rate mode : Variable
Overall bit rate : 455 kb/s
Encoded date : UTC 2017-10-29 04:13:43
Tagged date : UTC 2017-10-29 04:14:12

Video
ID : 1
Format : HEVC
Format/Info : High Efficiency Video Coding
Format profile : Main@L4@High
Codec ID : hvc1
Codec ID/Info : High Efficiency Video Coding
Duration : 14 min 24 s
Bit rate : 322 kb/s
Width : 960 pixels
Height : 540 pixels
Display aspect ratio : 16:9
Frame rate mode : Constant
Frame rate : 23.976 (24000/1001) FPS
Color space : YUV
Chroma subsampling : 4:2:0 (Type 1 / Type 0)
Bit depth : 8 bits
Bits/(Pixel*Frame) : 0.026
Stream size : 33.2 MiB (71%)
Encoded date : UTC 2017-10-29 04:13:43
Tagged date : UTC 2017-10-29 04:14:12
Color range : Full
Color primaries : BT.709
Transfer characteristics : BT.709
Matrix coefficients : BT.709

Audio
ID : 2
Format : AAC
Format/Info : Advanced Audio Codec
Format profile : LC
Codec ID : mp4a-40-2
Duration : 14 min 24 s
Bit rate mode : Variable
Bit rate : 129 kb/s
Channel(s) : 2 channels
Channel positions : Front: L R
Sampling rate : 48.0 kHz
Frame rate : 46.875 FPS (1024 SPF)
Compression mode : Lossy
Stream size : 13.2 MiB (28%)
Title : aac 2.0
Default : Yes
Alternate group : 1
Encoded date : UTC 2017-10-29 04:13:43
Tagged date : UTC 2017-10-29 04:14:12 Screenshots
× Brendon Burchard - Habit Builder Bundle Close
× Brendon Burchard - Habit Builder Bundle Close
× Brendon Burchard - Habit Builder Bundle Close
× Brendon Burchard - Habit Builder Bundle Close
✅ Exclusive eLearning Videos ParRus-blog ← add to bookmarks

Feel free to contact me PM
when links are dead or want any repost
× Brendon Burchard - Habit Builder Bundle Close



Download File Size:2.24 GB


Brendon Burchard - Habit Builder Bundle
€25
Customers who bought this program also bought:

Home| All Programs| Today added Progs| Download Status| Customers opinion| Helpdesk| Shopping cart      
Copyright 2006-2020 ©   LPStore   All Rights Reserved





Adobe Photoshop 2020 21.0.3.91 x64 Multilingual Portable with plugins and Camera Raw profiles €110

             

Adobe Illustrator 2020 €75






Autodesk AutoCAD 2020 (1 dvd) €100

             

SolidWorks 2020 SP2.0 Full Premium (1 dvd) €110






FileMaker Pro 18 Advanced 18.0.3.317 Multilingual €60


Pinnacle Studio Ultimate 23.1.0.231 with Content Pack €25


CorelDRAW Graphics Suite 2020 Multilingual €65